Eddie the Eagle (2016) 1080p BluRay [Dual Audio] BD 5.1 [Hindi + English] x264 M-Sub -=By @ Kamalesh=-

Technical Details

Size 3.53 Gb
Seed 18
Leach 132
Hash AE82FD415EB839730E70F18A3F8EE2BE07C3611C
Added 2 y ago

Vote for Torrent

 Like 0  Dislike 0

Torrent Health

15 %

Files

 or selectively click on the files tree

Trackers

udp://tracker.internetwarriors.net:1337/announce
udp://exodus.desync.com:6969/announce
udp://tracker.openbittorrent.com:80/announce
udp://zer0day.ch:1337/announce
udp://9.rarbg.me:2710/announce
udp://tracker.coppersurfer.tk:6969/announce
udp://thetracker.org:80/announce
udp://tracker.coppersurfer.tk:6969
udp://tracker.leechers-paradise.org:6969/announce
udp://eddie4.nl:6969/announce
udp://tracker.sktorrent.net:6969/announce
udp://9.rarbg.to:2710/announce
udp://tracker.aletorrenty.pl:2710/announce
udp://tracker.piratepublic.com:1337/announce
udp://tracker.opentrackr.org:1337/announce

Add Comment

Comments

There are no comments yet. Be first.

Please Share

Description

Eddie the Eagle (2016) 1080p BluRay [Dual Audio] BD 5.1 [Hindi + English] x264 M-Sub -=By @ Kamalesh=-

705190f5bc_345x518_61676321c6.jpg

Source : BD 50 - Hon3y

Click Image To View Full Size
1080pRippForDuallaudio29308.th.png 1080pRippForDuallaudio71652.th.png 1080pRippForDuallaudio76347.th.png 1080pRippForDuallaudio98834.th.png 1080pRippForDuallaudio104289.th.png 1080pRippForDuallaudio110206.th.png 1080pRippForDuallaudio121208.th.png 1080pRippForDuallaudio21727.th.png 1080pRippForDuallaudio24038.th.png 1080pRippForDuallaudio133782.th.png

---=General=----
Complete name : Eddie the Eagle (2016) 1080p BluRay [Dual Audio] BD 5.1 [Hindi + English] x264 M-Sub -=By @ Kamalesh=-.mkv
Format : Matroska
Format version : Version 4 / Version 2
File size : 3.51 GiB
Duration : 1h 45mn
Overall bit rate mode : Variable
Overall bit rate : 4 746 Kbps

---=Video=----
Format : AVC
Format/Info : Advanced Video Codec
Format profile : [email protected]
Format settings, CABAC : Yes
Format settings, ReFrames : 4 frames
Codec ID : V_MPEG4/ISO/AVC
Duration : 1h 45mn
Bit rate mode : Variable
Bit rate : 3 839 Kbps
Maximum bit rate : 40.0 Mbps
Width : 1 920 pixels
Height : 800 pixels
Display aspect ratio : 2.40:1
Frame rate mode : Constant
Frame rate : 23.976 (24000/1001) fps
Color space : YUV
Chroma subsampling : 4:2:0
Bit depth : 8 bits
Scan type : Progressive
Bits/(Pixel*Frame) : 0.104
Stream size : 2.83 GiB (81%)
Writing library : x264
Language : English
Default : Yes
Forced : No
Color range : Limited
Color primaries : Generic film
Transfer characteristics : BT.709
Matrix coefficients : BT.709

---=Audio Hind =----
Format : AC-3
Format/Info : Audio Coding 3
Mode extension : CM (complete main)
Format settings, Endianness : Big
Codec ID : A_AC3
Duration : 1h 45mn
Bit rate mode : Constant
Bit rate : 448 Kbps
Channel(s) : 6 channels
Channel positions : Front: L C R, Side: L R, LFE
Sampling rate : 48.0 KHz
Compression mode : Lossy
Stream size : 339 MiB (9%)
Title : BD 5.1 - Hindi
Language : Hindi
Language : Hindi

---=Audio English =----
Format : AC-3
Format/Info : Audio Coding 3
Mode extension : CM (complete main)
Format settings, Endianness : Big
Codec ID : A_AC3
Duration : 1h 45mn
Bit rate mode : Constant
Bit rate : 448 Kbps
Channel(s) : 6 channels
Channel positions : Front: L C R, Side: L R, LFE
Sampling rate : 48.0 KHz
Compression mode : Lossy
Stream size : 339 MiB (9%)
Title : BD 5.1 - English
Language : English

---=Text English =----
Format : UTF-8
Codec ID : S_TEXT/UTF8
Codec ID/Info : UTF-8 Plain Text
Duration : 1h 44mn
Title : Encoded By Kamalesh English SRT
Language : English

---=Text Hindi =----
Format : PGS
Muxing mode : zlib
Codec ID : S_HDMV/PGS
Codec ID/Info : Picture based subtitle format used on BDs/HD-DVDs
Duration : 1h 44mn
Title : Hindi PSGS By Kamalesh
Language : Hindi

Cool20Text20-20Super20Seeded20188477295438511.png