Éric Rohmer's Pauline à la plage (1983) - 720p x265 HEVC - FRE-ITA (ENG SUBS) [BRSHNKV]

Technical Details

Size 892.2 Mb
Seed 8
Leach 1
Hash 7C29BF6FCFE30EC1DD2F569E5D95DEADABB7D8C1
Added 1 y ago

Vote for Torrent

 Like 0  Dislike 0

Torrent Health

88 %

Files

 or selectively click on the files tree

Trackers

udp://tracker.coppersurfer.tk:6969
udp://tracker.coppersurfer.tk:6969/announce
udp://tracker.leechers-paradise.org:6969/announce
udp://tracker.opentrackr.org:1337/announce
udp://zer0day.to:1337/announce������������������������������������������������������������������������������������������������������������������������������

Add Comment

Comments

There are no comments yet. Be first.

Please Share

Description

Fifteen year old Pauline and her older cousin, model-shaped Marion, go to the emptying Atlantic coast for an autumn holiday. Marion ignores the approaches of a surfer and falls for Henri, a hedonist who is only interested in a sexual adventure and drops her soon. Pauline's little romance with a young man (Sylvain) is also spoiled by Henri.










Tech:

Format : MPEG-4
Format profile : Base Media / Version 2
Codec ID : mp42
File size : 892 MiB
Duration : 1h 30mn
Overall bit rate mode : Variable
Overall bit rate : 1 374 Kbps
Movie name : Pauline à la plage 720p x265 HEVC [BRSHNKV]
Encoded date : UTC 2017-05-27 11:55:31
Tagged date : UTC 2017-05-27 11:55:31
Writing application : HandBrake 20160211184813-ffd8cb1-master 2016021301

Video
ID : 1
Format : HEVC
Format/Info : High Efficiency Video Coding
Format profile : Main 10[email protected]@Main
Codec ID : hev1
Codec ID/Info : High Efficiency Video Coding
Duration : 1h 30mn
Bit rate : 1 201 Kbps
Width : 956 pixels
Height : 720 pixels
Display aspect ratio : 4:3
Frame rate mode : Constant
Frame rate : 25.000 fps
Color space : YUV
Chroma subsampling : 4:2:0
Bit depth : 10 bits
Bits/(Pixel*Frame) : 0.070
Stream size : 779 MiB (87%)
Writing library : x265 1.9:[Mac OS X][clang 7.0.2][64 bit] 10bit
Encoded date : UTC 2017-05-27 11:55:31
Tagged date : UTC 2017-05-27 11:55:31
Color range : Limited
Color primaries : BT.709
Transfer characteristics : BT.709
Matrix coefficients : BT.709

Audio #1
ID : 2
Format : AAC
Format/Info : Advanced Audio Codec
Format profile : LC
Codec ID : 40
Duration : 1h 30mn
Bit rate mode : Variable
Bit rate : 82.2 Kbps
Channel(s) : 2 channels
Channel(s)_Original : 1 channel
Channel positions : Front: C
Sampling rate : 48.0 KHz
Compression mode : Lossy
Stream size : 53.4 MiB (6%)
Title : Mono / Mono
Language : French
Encoded date : UTC 2017-05-27 11:55:31
Tagged date : UTC 2017-05-27 11:55:31

Audio #2
ID : 3
Format : AAC
Format/Info : Advanced Audio Codec
Format profile : LC
Codec ID : 40
Duration : 1h 30mn
Bit rate mode : Variable
Bit rate : 82.3 Kbps
Channel(s) : 2 channels
Channel(s)_Original : 1 channel
Channel positions : Front: C
Sampling rate : 48.0 KHz
Compression mode : Lossy
Stream size : 53.4 MiB (6%)
Title : Mono / Mono
Language : Italian
Encoded date : UTC 2017-05-27 11:55:31
Tagged date : UTC 2017-05-27 11:55:31

Menu
ID : 4
Codec ID : text
Duration : 1h 30mn
Language : English
Encoded date : UTC 2017-05-27 11:55:31
Tagged date : UTC 2017-05-27 11:55:31
Bit rate mode : CBR
00:00:00.000 : 00:00:00.000
00:10:15.640 : 00:10:15.360
00:19:45.080 : 00:19:44.880
00:24:30.920 : 00:24:30.680
00:33:47.320 : 00:33:47.160
00:42:46.280 : 00:42:46.040
00:48:01.760 : 00:48:01.520
00:59:11.520 : 00:59:11.400
01:05:27.400 : 01:05:27.160
01:15:20.760 : 01:15:20.520
01:21:00.800 : 01:21:00.560