Vittorio De Sica's L'oro di Napoli (1954) - DVDRip x265 HEVC - ITA (ENG SUBS) [BRSHNKV]

Technical Details

Size 1.3 Gb
Seed 10
Leach 4
Hash 6EAED6664A20516EF10B59F91653F1442D7D3ECD
Added 1 y ago

Vote for Torrent

 Like 0  Dislike 0

Torrent Health

71 %

Files

 or selectively click on the files tree

Trackers

udp://tracker.coppersurfer.tk:6969
udp://tracker.coppersurfer.tk:6969/announce
udp://tracker.leechers-paradise.org:6969/announce
udp://tracker.opentrackr.org:1337/announce
udp://zer0day.to:1337/announce촀⒧Œǡ댸◁Ǟ ���☃–ǡ槸★šǡ ���☔ Ǡ ���◸﯀ᅠ 乸☕­ǡ���☖³Ǡ
���☆

Add Comment

Comments

There are no comments yet. Be first.

Please Share

Description

Tribute to Naples, where director De Sica spent his first years, this is a collection of 6 Napolitean episodes : a clown exploited by a gangster ; an inconstant pizza seller (Sofia) loosing her husband's ring ; the funeral of a dead child ; the gambler Count Prospero B. defeated by a kid ; the unexpected and unusual wedding of Teresa, a prostitute ; the "professor" Ersilio Micci, a "wisdom seller".









Tech:

Format : MPEG-4
Format profile : Base Media / Version 2
Codec ID : mp42
File size : 1.30 GiB
Duration : 2h 11mn
Overall bit rate mode : Variable
Overall bit rate : 1 419 Kbps
Movie name : L'oro di Napoli DVDRip x265 HEVC [BRSHNKV]
Encoded date : UTC 2017-06-07 13:03:50
Tagged date : UTC 2017-06-07 13:03:50
Writing application : HandBrake 20160211184813-ffd8cb1-master 2016021301

Video
ID : 1
Format : HEVC
Format/Info : High Efficiency Video Coding
Format profile : Main [email protected]@Main
Codec ID : hev1
Codec ID/Info : High Efficiency Video Coding
Duration : 2h 11mn
Bit rate : 1 301 Kbps
Width : 706 pixels
Height : 576 pixels
Display aspect ratio : 4:3
Original display aspect ratio : 4:3
Frame rate mode : Constant
Frame rate : 50.000 fps
Color space : YUV
Chroma subsampling : 4:2:0
Bit depth : 10 bits
Bits/(Pixel*Frame) : 0.064
Stream size : 1.19 GiB (92%)
Writing library : x265 1.9:[Mac OS X][clang 7.0.2][64 bit] 10bit
Encoded date : UTC 2017-06-07 13:03:50
Tagged date : UTC 2017-06-07 13:03:50
Color range : Limited
Color primaries : BT.601 NTSC
Transfer characteristics : BT.709
Matrix coefficients : BT.601

Audio
ID : 2
Format : AAC
Format/Info : Advanced Audio Codec
Format profile : LC
Codec ID : 40
Duration : 2h 11mn
Bit rate mode : Variable
Bit rate : 108 Kbps
Channel(s) : 2 channels
Channel positions : Front: L R
Sampling rate : 48.0 KHz
Compression mode : Lossy
Stream size : 101 MiB (8%)
Title : Stereo / Stereo
Language : Italian
Encoded date : UTC 2017-06-07 13:03:50
Tagged date : UTC 2017-06-07 13:03:50