Federico Fellini's La città delle donne (1980) - 1080p x265 HEVC - ITA (ENG SUBS) [BRSHNKV]

Technical Details

Size 1.04 Gb
Seed 2
Leach 1
Hash 1B0F971A0B099F0C66ED61B7C6AC1F891367DE14
Added 1 y ago

Vote for Torrent

 Like 0  Dislike 0

Torrent Health

66 %

Files

 or selectively click on the files tree

Trackers

http://tracker.opentrackr.org:1337/announce
udp://explodie.org:6969/announce
http://5.79.83.193:2710/announce
http://tracker.dler.org:6969/announce
udp://zer0day.to:1337/announce
http://tracker.grepler.com:6969/announce
udp://tracker.leechers-paradise.org:6969/announce
udp://tracker.coppersurfer.tk:6969/announce
http://open.acgtracker.com:1096/announce
udp://tracker.opentrackr.org:1337/announce
������������������������������������������������������������������������������������������������������������������������������������������������������������������������������������������������������������������������������������������������������������������������������������������������������������������������������������������������������������������������������������������������������������������������������������������������������������������������������������������������������������������������������������������������������������������������������������������������������������������␀

Add Comment

Comments

There are no comments yet. Be first.

Please Share

Description

Marcello is in the compartment of an Italian train, facing forward when the mineral water of the woman seated across from him starts to fall toward him. He catches the bottle and makes eye contact and follows her when she leaves the compartment. For a few moments she finds him attractive too. Then suddenly she gets off the train and starts walking through a field. Marcello follows her, loses her, finds himself in a large hotel surrounded by women. A feminist conference is taking place and he tries to escape.







Technical:

Format : MPEG-4
Format profile : Base Media / Version 2
Codec ID : mp42
File size : 1.04 GiB
Duration : 2h 19mn
Overall bit rate mode : Variable
Overall bit rate : 1 074 Kbps
Movie name : La città delle donne 1080p x265 HEVC [BRSHNKV]
Encoded date : UTC 2017-01-05 04:08:47
Tagged date : UTC 2017-01-05 04:08:47
Writing application : HandBrake 20160211184813-ffd8cb1-master 2016021301

Video
ID : 1
Format : HEVC
Format/Info : High Efficiency Video Coding
Format profile : Main [email protected]@Main
Codec ID : hev1
Codec ID/Info : High Efficiency Video Coding
Duration : 2h 19mn
Bit rate : 901 Kbps
Width : 1 920 pixels
Height : 1 036 pixels
Display aspect ratio : 1.85:1
Frame rate mode : Constant
Frame rate : 24.000 fps
Color space : YUV
Chroma subsampling : 4:2:0
Bit depth : 10 bits
Bits/(Pixel*Frame) : 0.019
Stream size : 897 MiB (84%)
Writing library : x265 1.9:[Mac OS X][clang 7.0.2][64 bit] 10bit
Encoded date : UTC 2017-01-05 04:08:47
Tagged date : UTC 2017-01-05 04:08:47
Color range : Limited
Color primaries : BT.709
Transfer characteristics : BT.709
Matrix coefficients : BT.709

Audio #1
ID : 2
Format : AAC
Format/Info : Advanced Audio Codec
Format profile : LC
Codec ID : 40
Duration : 2h 19mn
Bit rate mode : Variable
Bit rate : 82.0 Kbps
Channel(s) : 2 channels
Channel(s)_Original : 1 channel
Channel positions : Front: C
Sampling rate : 48.0 KHz
Compression mode : Lossy
Stream size : 81.7 MiB (8%)
Title : Mono / Mono
Language : Italian
Encoded date : UTC 2017-01-05 04:08:47
Tagged date : UTC 2017-01-05 04:08:47

Audio #2
ID : 3
Format : AAC
Format/Info : Advanced Audio Codec
Format profile : LC
Codec ID : 40
Duration : 2h 19mn
Bit rate mode : Variable
Bit rate : 82.1 Kbps
Channel(s) : 2 channels
Channel(s)_Original : 1 channel
Channel positions : Front: C
Sampling rate : 48.0 KHz
Compression mode : Lossy
Stream size : 81.8 MiB (8%)
Title : Mono / Mono
Language : French
Encoded date : UTC 2017-01-05 04:08:47
Tagged date : UTC 2017-01-05 04:08:47