La pazza gioia (2016) - 1080p x265 HEVC + 1080p x264 - ITA (ENG SUBS) [BRSHNKV] [HTD 2017]

Technical Details

Size 2.72 Gb
Seed 6
Leach 0
Hash 97B65322FDACA386C2095933289C0AAC5BAABB14
Added 1 y ago

Vote for Torrent

 Like 0  Dislike 0

Torrent Health

100 %

Files

 or selectively click on the files tree

Trackers

udp://tracker.coppersurfer.tk:6969/announce
udp://zer0day.to:1337/announce
udp://tracker.leechers-paradise.org:6969/announce

Add Comment

Comments

There are no comments yet. Be first.

Please Share

Description

Happy Torrents Day - 30th March 2017


x264





x265





Techx264:

Format : MPEG-4
Format profile : Base Media / Version 2
Codec ID : mp42
File size : 1.56 GiB
Duration : 1h 56mn
Overall bit rate mode : Variable
Overall bit rate : 1 927 Kbps
Movie name : La pazza gioia 1080p x264 [BRSHNKV]
Encoded date : UTC 2017-03-26 23:04:01
Tagged date : UTC 2017-03-26 23:04:01
Writing application : HandBrake 1.0.2 2017012200

Video
ID : 1
Format : AVC
Format/Info : Advanced Video Codec
Format profile : [email protected]
Format settings, CABAC : Yes
Format settings, ReFrames : 5 frames
Codec ID : avc1
Codec ID/Info : Advanced Video Coding
Duration : 1h 56mn
Bit rate : 1 600 Kbps
Width : 1 918 pixels
Height : 798 pixels
Display aspect ratio : 2.40:1
Frame rate mode : Variable
Frame rate : 23.976 fps
Minimum frame rate : 23.974 fps
Maximum frame rate : 23.981 fps
Color space : YUV
Chroma subsampling : 4:2:0
Bit depth : 8 bits
Scan type : Progressive
Bits/(Pixel*Frame) : 0.044
Stream size : 1.30 GiB (83%)
Writing library : x264 core 148 r2708 86b7198
Encoded date : UTC 2017-03-26 23:04:01
Tagged date : UTC 2017-03-26 23:04:01
Color range : Limited
Color primaries : BT.709
Transfer characteristics : BT.709
Matrix coefficients : BT.709

Audio #1
ID : 2
Format : AAC
Format/Info : Advanced Audio Codec
Format profile : LC
Codec ID : 40
Duration : 1h 56mn
Bit rate mode : Variable
Bit rate : 159 Kbps
Channel(s) : 2 channels
Channel positions : Front: L R
Sampling rate : 48.0 KHz
Compression mode : Lossy
Stream size : 132 MiB (8%)
Title : Stereo / Stereo
Language : Italian
Encoded date : UTC 2017-03-26 23:04:01
Tagged date : UTC 2017-03-26 23:04:01

Audio #2
ID : 3
Format : AAC
Format/Info : Advanced Audio Codec
Format profile : LC
Codec ID : 40
Duration : 1h 56mn
Bit rate mode : Variable
Bit rate : 159 Kbps
Channel(s) : 2 channels
Channel positions : Front: L R
Sampling rate : 48.0 KHz
Compression mode : Lossy
Stream size : 132 MiB (8%)
Title : Stereo / Stereo
Language : Italian
Encoded date : UTC 2017-03-26 23:04:01
Tagged date : UTC 2017-03-26 23:04:01

Menu
ID : 4
Codec ID : text
Duration : 1h 56mn
Language : English
Encoded date : UTC 2017-03-26 23:04:01
Tagged date : UTC 2017-03-26 23:04:01
Bit rate mode : CBR
00:00:00.000 : 00:00:00.000
00:07:05.342 : 00:07:05.342
00:14:28.201 : 00:14:28.201
00:20:13.838 : 00:20:13.838
00:29:27.099 : 00:29:27.099
00:39:02.590 : 00:39:02.590
00:50:56.804 : 00:50:56.804
00:59:52.756 : 00:59:52.756
01:08:53.129 : 01:08:53.129
01:16:19.950 : 01:16:19.950
01:25:27.706 : 01:25:27.706
01:35:23.259 : 01:35:23.259
01:47:10.215 : 01:47:10:200
__________________________________________


Tech x265:

Format : MPEG-4
Format profile : Base Media / Version 2
Codec ID : mp42
File size : 1.16 GiB
Duration : 1h 56mn
Overall bit rate mode : Variable
Overall bit rate : 1 428 Kbps
Movie name : La pazza gioia 1080p x265 HEVC [BRSHNKV]
Encoded date : UTC 2017-03-24 13:52:34
Tagged date : UTC 2017-03-24 13:52:34
Writing application : HandBrake 20160211184813-ffd8cb1-master 2016021301

Video
ID : 1
Format : HEVC
Format/Info : High Efficiency Video Coding
Format profile : Main [email protected]@Main
Codec ID : hev1
Codec ID/Info : High Efficiency Video Coding
Duration : 1h 56mn
Bit rate : 1 100 Kbps
Width : 1 918 pixels
Height : 798 pixels
Display aspect ratio : 2.40:1
Frame rate mode : Variable
Frame rate : 23.976 fps
Minimum frame rate : 23.974 fps
Maximum frame rate : 23.981 fps
Color space : YUV
Chroma subsampling : 4:2:0
Bit depth : 10 bits
Bits/(Pixel*Frame) : 0.030
Stream size : 913 MiB (77%)
Writing library : x265 1.9:[Mac OS X][clang 7.0.2][64 bit] 10bit
Encoded date : UTC 2017-03-24 13:52:34
Tagged date : UTC 2017-03-24 13:52:34
Color range : Limited
Color primaries : BT.709
Transfer characteristics : BT.709
Matrix coefficients : BT.709

Audio #1
ID : 2
Format : AAC
Format/Info : Advanced Audio Codec
Format profile : LC
Codec ID : 40
Duration : 1h 56mn
Bit rate mode : Variable
Bit rate : 159 Kbps
Channel(s) : 2 channels
Channel positions : Front: L R
Sampling rate : 48.0 KHz
Compression mode : Lossy
Stream size : 132 MiB (11%)
Title : Stereo / Stereo
Language : Italian
Encoded date : UTC 2017-03-24 13:52:34
Tagged date : UTC 2017-03-24 13:52:34

Audio #2
ID : 3
Format : AAC
Format/Info : Advanced Audio Codec
Format profile : LC
Codec ID : 40
Duration : 1h 56mn
Bit rate mode : Variable
Bit rate : 159 Kbps
Channel(s) : 2 channels
Channel positions : Front: L R
Sampling rate : 48.0 KHz
Compression mode : Lossy
Stream size : 132 MiB (11%)
Title : Stereo / Stereo
Language : Italian
Encoded date : UTC 2017-03-24 13:52:34
Tagged date : UTC 2017-03-24 13:52:34

Menu
ID : 4
Codec ID : text
Duration : 1h 56mn
Language : English
Encoded date : UTC 2017-03-24 13:52:34
Tagged date : UTC 2017-03-24 13:52:34
Bit rate mode : CBR
00:00:00.000 : 00:00:00.000
00:07:05.467 : 00:07:05.342
00:14:28.618 : 00:14:28.201
00:20:13.963 : 00:20:13.838
00:29:27.224 : 00:29:27.099
00:39:02.674 : 00:39:02.590
00:50:56.929 : 00:50:56.804
00:59:52.881 : 00:59:52.756
01:08:53.212 : 01:08:53.129
01:16:20.034 : 01:16:19.950
01:25:27.831 : 01:25:27.706
01:35:23.343 : 01:35:23.259
01:47:12.676 : 01:47:10:200