Kraftidioten (2014) - 1080p x265 HEVC - NOR (HARD ENG SUBS) [BRSHNKV]

Technical Details

Size 892.37 Mb
Seed 3
Leach 0
Hash EC8B7B6A38FBA7A78FE87049956493332E5EF2E4
Added 1 y ago

Vote for Torrent

 Like 0  Dislike 0

Torrent Health

100 %

Files

 or selectively click on the files tree

Trackers

udp://tracker.leechers-paradise.org:6969/announce
udp://tracker.coppersurfer.tk:6969/announce

Add Comment

Comments

There are no comments yet. Be first.

Please Share

Description

Nils ploughs snow in the wild winter mountains of Norway, and is recently awarded a Citizen of the Year Award. When his son is murdered for something he did not do, Nils wants revenge. And justice. His actions ignite a war between the vegan gangster "the Count" and the Serbian mafia boss "Papa". Winning a blood feud isn't easy, especially not in a welfare state. But Nils has something going for him: Heavy machinery and beginners luck.








Tech:

Format : MPEG-4
Format profile : Base Media / Version 2
Codec ID : mp42
File size : 892 MiB
Duration : 1h 56mn
Overall bit rate mode : Variable
Overall bit rate : 1 071 Kbps
Movie name : Kraftidioten 1080p x265 HEVC [BRSHNKV]
Encoded date : UTC 2017-02-21 08:50:17
Tagged date : UTC 2017-02-21 08:50:17
Writing application : HandBrake 20160211184813-ffd8cb1-master 2016021301

Video
ID : 1
Format : HEVC
Format/Info : High Efficiency Video Coding
Format profile : Main [email protected]@Main
Codec ID : hev1
Codec ID/Info : High Efficiency Video Coding
Duration : 1h 56mn
Bit rate : 901 Kbps
Width : 1 920 pixels
Height : 816 pixels
Display aspect ratio : 2.35:1
Frame rate mode : Constant
Frame rate : 24.000 fps
Color space : YUV
Chroma subsampling : 4:2:0
Bit depth : 10 bits
Bits/(Pixel*Frame) : 0.024
Stream size : 750 MiB (84%)
Writing library : x265 1.9:[Mac OS X][clang 7.0.2][64 bit] 10bit
Encoded date : UTC 2017-02-21 08:50:17
Tagged date : UTC 2017-02-21 08:50:17
Color range : Limited
Color primaries : BT.709
Transfer characteristics : BT.709
Matrix coefficients : BT.709

Audio
ID : 2
Format : AAC
Format/Info : Advanced Audio Codec
Format profile : LC
Codec ID : 40
Duration : 1h 56mn
Bit rate mode : Variable
Bit rate : 164 Kbps
Channel(s) : 2 channels
Channel positions : Front: L R
Sampling rate : 48.0 KHz
Compression mode : Lossy
Stream size : 137 MiB (15%)
Title : Stereo / Stereo
Language : Norwegian
Encoded date : UTC 2017-02-21 08:50:17
Tagged date : UTC 2017-02-21 08:50:17