Le Samourai (1967) - 1080p x265 HEVC - FRE (HARD ENG SUBS) [BRSHNKV]

Technical Details

Size 924.7 Mb
Seed 3
Leach 0
Hash C1F9ABFA88833708E1043B28222473C044B09A36
Added 1 y ago

Vote for Torrent

 Like 0  Dislike 0

Torrent Health

100 %

Files

 or selectively click on the files tree

Trackers

udp://zer0day.to:1337/announce
http://tracker.grepler.com:6969/announce
udp://tracker.leechers-paradise.org:6969/announce
udp://tracker.coppersurfer.tk:6969/announce

Add Comment

Comments

There are no comments yet. Be first.

Please Share

Description

Hitman Jef Costello is a perfectionist who always carefully plans his murders and who never gets caught. One night however, after killing a night-club owner, he's seen by witnesses. His efforts to provide himself with an alibi fail and more and more he gets driven into a corner.






Tech:

Format : MPEG-4
Format profile : Base Media / Version 2
Codec ID : mp42
File size : 925 MiB
Duration : 1h 45mn
Overall bit rate mode : Variable
Overall bit rate : 1 230 Kbps
Movie name : Le Samourai 1080p x265 HEVC [BRSHNKV]
Encoded date : UTC 2017-02-20 10:41:31
Tagged date : UTC 2017-02-20 10:41:31
Writing application : HandBrake 20160211184813-ffd8cb1-master 2016021301

Video
ID : 1
Format : HEVC
Format/Info : High Efficiency Video Coding
Format profile : Main [email protected]@Main
Codec ID : hev1
Codec ID/Info : High Efficiency Video Coding
Duration : 1h 45mn
Bit rate : 1 101 Kbps
Width : 1 916 pixels
Height : 1 030 pixels
Display aspect ratio : 1.85:1
Frame rate mode : Variable
Frame rate : 23.976 fps
Minimum frame rate : 23.974 fps
Maximum frame rate : 23.981 fps
Color space : YUV
Chroma subsampling : 4:2:0
Bit depth : 10 bits
Bits/(Pixel*Frame) : 0.023
Stream size : 827 MiB (89%)
Writing library : x265 1.9:[Mac OS X][clang 7.0.2][64 bit] 10bit
Encoded date : UTC 2017-02-20 10:41:31
Tagged date : UTC 2017-02-20 10:41:31
Color range : Limited
Color primaries : BT.709
Transfer characteristics : BT.709
Matrix coefficients : BT.709

Audio
ID : 2
Format : AAC
Format/Info : Advanced Audio Codec
Format profile : LC
Codec ID : 40
Duration : 1h 45mn
Bit rate mode : Variable
Bit rate : 123 Kbps
Channel(s) : 2 channels
Channel positions : Front: L R
Sampling rate : 48.0 KHz
Compression mode : Lossy
Stream size : 92.6 MiB (10%)
Title : Stereo / Stereo
Language : French
Encoded date : UTC 2017-02-20 10:41:31
Tagged date : UTC 2017-02-20 10:41:31