Padre padrone (1977) - 720p x265 HEVC - ITA (ENG SUBS) [BRSHNKV]

Technical Details

Size 1.09 Gb
Seed 5
Leach 1
Hash 55D9CFCDF659977103C512F8D740ECB8611054AC
Added 1 y ago

Vote for Torrent

 Like 0  Dislike 0

Torrent Health

83 %

Files

 or selectively click on the files tree

Trackers

udp://tracker.coppersurfer.tk:6969
udp://tracker.coppersurfer.tk:6969/announce
udp://tracker.leechers-paradise.org:6969/announce
udp://tracker.opentrackr.org:1337/announce
udp://zer0day.to:1337/announce

Add Comment

Comments

There are no comments yet. Be first.

Please Share

Description

The true story of the life of Gavino Ledda, the son of a Sardinian shepherd, and how he managed to escape his harsh, almost barbaric existence by slowly educating himself, despite violent opposition from his brutal father.









Tech:

Format : MPEG-4
Format profile : Base Media / Version 2
Codec ID : mp42
File size : 1.09 GiB
Duration : 1h 53mn
Overall bit rate mode : Variable
Overall bit rate : 1 371 Kbps
Movie name : Padre Padrone 720p x265 HEVC [BRSHNKV]
Encoded date : UTC 2017-06-05 15:41:58
Tagged date : UTC 2017-06-05 15:41:58
Writing application : HandBrake 20160211184813-ffd8cb1-master 2016021301

Video
ID : 1
Format : HEVC
Format/Info : High Efficiency Video Coding
Format profile : Main [email protected]@Main
Codec ID : hev1
Codec ID/Info : High Efficiency Video Coding
Duration : 1h 53mn
Bit rate : 1 201 Kbps
Width : 1 200 pixels
Height : 720 pixels
Display aspect ratio : 5:3
Frame rate mode : Variable
Frame rate : 23.976 fps
Minimum frame rate : 23.974 fps
Maximum frame rate : 23.981 fps
Color space : YUV
Chroma subsampling : 4:2:0
Bit depth : 10 bits
Bits/(Pixel*Frame) : 0.058
Stream size : 975 MiB (88%)
Writing library : x265 1.9:[Mac OS X][clang 7.0.2][64 bit] 10bit
Encoded date : UTC 2017-06-05 15:41:58
Tagged date : UTC 2017-06-05 15:41:58
Color range : Limited
Color primaries : BT.709
Transfer characteristics : BT.709
Matrix coefficients : BT.709

Audio
ID : 2
Format : AAC
Format/Info : Advanced Audio Codec
Format profile : LC
Codec ID : 40
Duration : 1h 53mn
Bit rate mode : Variable
Bit rate : 163 Kbps
Channel(s) : 2 channels
Channel(s)_Original : 1 channel
Channel positions : Front: C
Sampling rate : 48.0 KHz
Compression mode : Lossy
Stream size : 133 MiB (12%)
Title : Mono / Mono
Language : Italian
Encoded date : UTC 2017-06-05 15:41:58
Tagged date : UTC 2017-06-05 15:41:58