Jean-Luc Godard's Prénom Carmen (1983) - 720p x265 HEVC - FRE (HARD ENG SUBS) [BRSHNKV]

Technical Details

Size 746.63 Mb
Seed 5
Leach 0
Hash 15909A10981A312BE47595F504A418EA4D4FC190
Added 1 y ago

Vote for Torrent

 Like 0  Dislike 0

Torrent Health

100 %

Files

 or selectively click on the files tree

Trackers

udp://tracker.coppersurfer.tk:6969/announce
udp://explodie.org:6969/announce
udp://tracker.opentrackr.org:1337/announce
udp://tracker.coppersurfer.tk:6969
udp://zer0day.to:1337/announce
udp://tracker.openbittorrent.com:80
udp://open.demonii.com:1337

Add Comment

Comments

There are no comments yet. Be first.

Please Share

Description

Carmen is a member of a terrorist gang who falls in love with a young police officer guarding a bank that she and her cohorts try to rob. She leads him on while dragging the two of them closer to their ultimate doom. Jean-Luc Godard intercuts the film with shots of a string quartet practicing Beethoven, and his main protagonist, Carmen, is played by Maruschka Detmers creating a stunning effect in many scenes of extended nudity.









Tech:

Format : MPEG-4
Format profile : Base Media / Version 2
Codec ID : mp42
File size : 747 MiB
Duration : 1h 24mn
Overall bit rate mode : Variable
Overall bit rate : 1 233 Kbps
Movie name : Prénom Carmen 720p x265 HEVC [BRSHNKV]
Encoded date : UTC 2017-05-23 21:38:52
Tagged date : UTC 2017-05-23 21:38:52
Writing application : HandBrake 20160211184813-ffd8cb1-master 2016021301

Video
ID : 1
Format : HEVC
Format/Info : High Efficiency Video Coding
Format profile : Main [email protected]@Main
Codec ID : hev1
Codec ID/Info : High Efficiency Video Coding
Duration : 1h 24mn
Bit rate : 1 101 Kbps
Width : 962 pixels
Height : 720 pixels
Display aspect ratio : 4:3
Frame rate mode : Variable
Frame rate : 23.976 fps
Minimum frame rate : 23.974 fps
Maximum frame rate : 23.981 fps
Color space : YUV
Chroma subsampling : 4:2:0
Bit depth : 10 bits
Bits/(Pixel*Frame) : 0.066
Stream size : 666 MiB (89%)
Writing library : x265 1.9:[Mac OS X][clang 7.0.2][64 bit] 10bit
Encoded date : UTC 2017-05-23 21:38:52
Tagged date : UTC 2017-05-23 21:38:52
Color range : Limited
Color primaries : BT.709
Transfer characteristics : BT.709
Matrix coefficients : BT.709

Audio
ID : 2
Format : AAC
Format/Info : Advanced Audio Codec
Format profile : LC
Codec ID : 40
Duration : 1h 24mn
Bit rate mode : Variable
Bit rate : 126 Kbps
Channel(s) : 2 channels
Channel positions : Front: L R
Sampling rate : 48.0 KHz
Compression mode : Lossy
Stream size : 76.2 MiB (10%)
Title : Stereo / Stereo
Language : French
Encoded date : UTC 2017-05-23 21:38:52
Tagged date : UTC 2017-05-23 21:38:52