Maltese-Il romanzo del commissario (2017) - 1 of 4 - HDRip x265 HEVC - ITA (ENG SUBS) [BRSHNKV]

Technical Details

Size 680.42 Mb
Seed 4
Leach 0
Hash 74A7D09ED5D2F3C4282CDB2425B7AB4F29B8FD99
Added 1 y ago

Vote for Torrent

 Like 0  Dislike 0

Torrent Health

100 %

Files

 or selectively click on the files tree

Trackers

udp://tracker.coppersurfer.tk:6969
udp://tracker.coppersurfer.tk:6969/announce
udp://tracker.leechers-paradise.org:6969/announce
udp://tracker.opentrackr.org:1337/announce
udp://zer0day.to:1337/announce

Add Comment

Comments

There are no comments yet. Be first.

Please Share

Description

In Sicily during the seventies the police chief Maltese finds himself entangled in an investigation that will uncover the widespread influence of Mafia in the area and expose the archaic roots which nurtured it.






Tech:

Format : MPEG-4
Format profile : Base Media / Version 2
Codec ID : mp42
File size : 680 MiB
Duration : 1h 41mn
Overall bit rate mode : Variable
Overall bit rate : 935 Kbps
Movie name : Maltese Ep.01 - x265 HEVC [BRSHNKV]
Encoded date : UTC 2017-05-10 13:16:28
Tagged date : UTC 2017-05-10 13:16:28
Writing application : HandBrake 20160211184813-ffd8cb1-master 2016021301

Video
ID : 1
Format : HEVC
Format/Info : High Efficiency Video Coding
Format profile : Main [email protected]@Main
Codec ID : hev1
Codec ID/Info : High Efficiency Video Coding
Duration : 1h 41mn
Bit rate : 781 Kbps
Width : 928 pixels
Height : 504 pixels
Display aspect ratio : 1.85:1
Frame rate mode : Constant
Frame rate : 25.000 fps
Color space : YUV
Chroma subsampling : 4:2:0
Bit depth : 10 bits
Bits/(Pixel*Frame) : 0.067
Stream size : 568 MiB (83%)
Writing library : x265 1.9:[Mac OS X][clang 7.0.2][64 bit] 10bit
Encoded date : UTC 2017-05-10 13:16:28
Tagged date : UTC 2017-05-10 13:16:28
Color range : Limited
Color primaries : BT.601 PAL
Transfer characteristics : BT.709
Matrix coefficients : BT.601

Audio
ID : 2
Format : AAC
Format/Info : Advanced Audio Codec
Format profile : LC
Codec ID : 40
Duration : 1h 41mn
Bit rate mode : Variable
Bit rate : 149 Kbps
Channel(s) : 2 channels
Channel positions : Front: L R
Sampling rate : 44.1 KHz
Compression mode : Lossy
Stream size : 108 MiB (16%)
Title : Stereo / Stereo
Language : Italian
Encoded date : UTC 2017-05-10 13:16:28
Tagged date : UTC 2017-05-10 13:16:28