Gidseltagningen (2017) S01 E01 - 720p x265 HEVC - DAN (ENG SUBS) [BRSHNKV]

Technical Details

Size 259.5 Mb
Seed 2
Leach 1
Hash 6B4C8F7C07CA362DDF4BD21D2DA1F7C7AABE7A0E
Added 1 y ago

Vote for Torrent

 Like 1  Dislike 0

Torrent Health

66 %

Files

 or selectively click on the files tree

Trackers

udp://tracker.coppersurfer.tk:6969/announce
udp://tracker.leechers-paradise.org:6969/announce
udp://tracker.pirateparty.gr:6969/announce
udp://tracker.opentrackr.org:1337/announce

Add Comment

Comments

There are no comments yet. Be first.

Please Share

Description

Copenhagen, 2017. 15 innocent people are held hostage underground in a subway train.








Tech:

Format : MPEG-4
Format profile : Base Media / Version 2
Codec ID : mp42
File size : 259 MiB
Duration : 42mn 38s
Overall bit rate mode : Variable
Overall bit rate : 851 Kbps
Movie name : Gidseltagningen S01 E01 - 720p x265 HEVC [BRSHNKV]
Encoded date : UTC 2017-07-11 19:37:53
Tagged date : UTC 2017-07-11 19:37:53
Writing application : HandBrake 20160211184813-ffd8cb1-master 2016021301

Video
ID : 1
Format : HEVC
Format/Info : High Efficiency Video Coding
Format profile : Main [email protected]@Main
Codec ID : hev1
Codec ID/Info : High Efficiency Video Coding
Duration : 42mn 38s
Bit rate : 681 Kbps
Width : 1 280 pixels
Height : 616 pixels
Display aspect ratio : 2.078
Frame rate mode : Constant
Frame rate : 25.000 fps
Color space : YUV
Chroma subsampling : 4:2:0
Bit depth : 10 bits
Bits/(Pixel*Frame) : 0.035
Stream size : 208 MiB (80%)
Writing library : x265 1.9:[Mac OS X][clang 7.0.2][64 bit] 10bit
Encoded date : UTC 2017-07-11 19:37:53
Tagged date : UTC 2017-07-11 19:37:53
Color range : Limited
Color primaries : BT.709
Transfer characteristics : BT.709
Matrix coefficients : BT.709

Audio
ID : 2
Format : AAC
Format/Info : Advanced Audio Codec
Format profile : LC
Codec ID : 40
Duration : 42mn 38s
Bit rate mode : Variable
Bit rate : 164 Kbps
Channel(s) : 2 channels
Channel positions : Front: L R
Sampling rate : 48.0 KHz
Compression mode : Lossy
Stream size : 50.0 MiB (19%)
Title : Stereo / Stereo
Language : Danish
Encoded date : UTC 2017-07-11 19:37:53
Tagged date : UTC 2017-07-11 19:37:53