Forbrydelsen - Season 2 - 720p x265 HEVC - DAN-ITA (ENG SUBS) [BRSHNKV]

Technical Details

Size 2.78 Gb
Seed 6
Leach 2
Hash 5385CF21954D726AFB3D870FF71BF193822EF6CB
Added 9 m ago

Vote for Torrent

 Like 0  Dislike 0

Torrent Health

75 %

Files

 or selectively click on the files tree

  • Forbrydelsen - Season 2 - 720p x265 HEVC - DAN-ITA (ENG SUBS) [BRSHNKV]
    • 10. Thursday November 24 .mp4 (291.48 Mb)
    • 09. Wednesday November 23 .mp4 (289.49 Mb)
    • 07. Monday November 21 .mp4 (288.62 Mb)
    • 08. Tuesday November 22 .mp4 (287.77 Mb)
    • 06. Sunday November 20 .mp4 (285.06 Mb)
    • 02. Wednesday November 16 .mp4 (281.77 Mb)
    • 04. Friday November 18 .mp4 (281.37 Mb)
    • 03. Thursday November 17 .mp4 (281.11 Mb)
    • 01. Tuesday November 15 .mp4 (278.62 Mb)
    • 05. Saturday November 19 .mp4 (277.88 Mb)
    • 04. Friday November 18 .srt (54.00 Kb)
    • 02. Wednesday November 16 .srt (53.97 Kb)
    • 05. Saturday November 19 .srt (51.54 Kb)
    • 03. Thursday November 17 .srt (50.02 Kb)
    • 10. Thursday November 24 .srt (48.99 Kb)
    • 07. Monday November 21 .srt (45.59 Kb)
    • 01. Tuesday November 15 .srt (44.66 Kb)

Trackers

udp://tracker.coppersurfer.tk:6969
udp://tracker.leechers-paradise.org:6969/announce
udp://tracker.opentrackr.org:1337/announce
udp://tracker.coppersurfer.tk:6969/announce

Add Comment

Comments

There are no comments yet. Be first.

Please Share

Description



Technical:

Format : MPEG-4
Format profile : Base Media / Version 2
Codec ID : mp42
Overall bit rate mode : Variable
Overall bit rate : 659 Kbps
Encoded date : UTC 2016-01-19 07:32:45
Tagged date : UTC 2016-01-19 07:32:45
Writing application : HandBrake 0.10.2 2015061100

Video
ID : 1
Format : HEVC
Format/Info : High Efficiency Video Coding
Format profile : [email protected]@Main
Codec ID : hev1
Codec ID/Info : High Efficiency Video Coding
Bit rate : 321 Kbps
Width : 1 280 pixels
Height : 720 pixels
Display aspect ratio : 16:9
Frame rate mode : Constant
Frame rate : 24.000 fps
Color space : YUV
Chroma subsampling : 4:2:0
Bit depth : 8 bits
Bits/(Pixel*Frame) : 0.014
Stream size : 137 MiB (49%)
Writing library : x265 1.5:[Mac OS X][clang 6.1.0][64 bit]
Encoded date : UTC 2016-01-19 07:32:45
Tagged date : UTC 2016-01-19 07:32:45
Color range : Limited
Color primaries : BT.709
Transfer characteristics : BT.709
Matrix coefficients : BT.709

Audio #1
ID : 2
Format : AAC
Format/Info : Advanced Audio Codec
Format profile : LC
Codec ID : 40
Bit rate mode : Variable
Bit rate : 165 Kbps
Channel(s) : 2 channels
Channel positions : Front: L R
Sampling rate : 48.0 KHz
Compression mode : Lossy
Stream size : 70.4 MiB (25%)
Title : Stereo / Stereo
Language : Italian
Encoded date : UTC 2016-01-19 07:32:45
Tagged date : UTC 2016-01-19 07:32:45

Audio #2
ID : 3
Format : AAC
Format/Info : Advanced Audio Codec
Format profile : LC
Codec ID : 40
Bit rate mode : Variable
Bit rate : 165 Kbps
Channel(s) : 2 channels
Channel positions : Front: L R
Sampling rate : 48.0 KHz
Compression mode : Lossy
Stream size : 70.4 MiB (25%)
Title : Stereo / Stereo
Language : Danish
Encoded date : UTC 2016-01-19 07:32:45
Tagged date : UTC 2016-01-19 07:32:45